We Mend Our Broken Bones (recorded 16 June 2018, 13 Oct 2018, 12 January — 31 March 2019)

I took a long time to record this, and even longer to release it. I kept meaning to, but the 13th of the months kept passing and I kept getting lazier and lazier and, well, here we go. I'm really proud of this one.

Free as always. Enjoy if you can.

  We Mend Our Broken Bones cover
We Mend Our Broken Bones back cover
 

geometry is evil (05:20)
Alexander the coppersmith (08:07)
and all we're left with is laughter (10:23)
thank you Minnesota (05:15)
a stranger's soft touch (03:19)
meals for vultures (07:58)
aural interference (02:52)
flophouse circus (13:39)
iron skeletons (11:15)
above the floorboards (09:42)
a companion to Owls (07:13)
lost in Montreal, dreaming of home (04:32)
we fell to Earth (12:54)

total time: 102:48

[flac]
[flac]
[flac]
[flac]
[flac]
[flac]
[flac]
[flac]
[flac]
[flac]
[flac]
[flac]
[flac]

 
Look at the album artwork
Released: 13 September 2019
Catalog number:OSC057AS013LP102:48

 

samples

Alexander the coppersmith — contains samples of windy calm town dec 121230_02 by klankbeeld, and I would punch a bee before i would do that by AmeAngelofSin

A stranger's soft touch — contains a sample of skyline distant highway far haze from campground night1 by kyles.

meals for vultures — contains samples of de_que by Bram, and Fierro viejo / used items buyer by Davidmgarcia.

iron skeletons — contains a sample of skyline distant highway far haze from campground night1 by kyles.

A companion to Owls — contains samples of Female Tawny Owl by Benboncan.

lost in montreal — contains samples of metro subway Montreal leave right by kyles, train1 by Andrew Duke, and crowd terrasse by JFBSAUVE.

we fell to earth — contains a sample of skyline small town refineries industrial drone by kyles.

 

Dynamic range stats for We Mend Our Broken Bones


----------------------------------------------------------------------------------------------
 DR		Peak		RMS		Filename
----------------------------------------------------------------------------------------------

 DR13		-2.49 dB 	-19.71 dB 	geometry is evil.wav
 DR11		-1.68 dB 	-14.59 dB 	Alexander the coppersmith.wav
 DR15		-1.60 dB 	-19.95 dB 	and all we're left with is laughter.wav
 DR11		-1.63 dB 	-15.32 dB 	thank you Minnesota.wav
 DR11		-2.03 dB 	-14.59 dB 	a stranger's soft touch.wav
 DR13		-2.03 dB 	-18.55 dB 	meals for vultures.wav
 DR11		-2.88 dB 	-15.72 dB 	aural interference.wav
 DR16		-1.96 dB 	-21.37 dB 	flophouse circus.wav
 DR13		-1.48 dB 	-19.26 dB 	iron skeletons.wav
 DR10		-1.33 dB 	-16.00 dB 	above the floorboards.wav
 DR13		-1.92 dB 	-18.90 dB 	a companion to Owls.wav
 DR11		-1.80 dB 	-15.09 dB       lost in montreal dreaming of home.wav
 DR11		-2.27 dB 	-16.76 dB 	we fell to earth.wav
 
----------------------------------------------------------------------------------------------

 Number of files:	13
 Official DR value:	DR12

==============================================================================================

 

Creative Commons License
We Mend Our Broken Bones by Abandoned Shorelines is licensed under a Creative Commons Attribution-ShareAlike 3.0 Unported License.

 

 

 

 

back to the top
back to the index
send comments