Kaleidoscope Drone (recorded 14 July, 4 August & 21-28 November 2016)

 

  Kaleidoscope Drone cover
Kaleidoscope Drone back cover
 

Kaleidoscope Drone (27:49)
Girl Cock Forever (15:35) [explicit]
Youth Is Beauty (12:01)
For The Girl (32:32)

total time: 87:57

[flac]
[flac]
[flac]
[flac]

 
Look at the album artwork
Released: 13 February 2017
Catalog number:OSC049AS007LP87:57

 

Credits

Front Cover: IMG_0689 by Anders Wahlbom

 

Dynamic range stats for Kaleidoscope Drone


----------------------------------------------------------------------------------------------
 DR		Peak		RMS		Filename
----------------------------------------------------------------------------------------------

 DR11		-4.71 dB 	-18.52 dB 	kaleidoscopedrone.aiff
 DR20		-2.00 dB 	-25.01 dB 	girl cock forever.aif
 DR16		-3.99 dB 	-21.84 dB 	youth is beauty remix.aif
 DR12		-2.68 dB 	-16.94 dB 	for the girl.aiff
 
----------------------------------------------------------------------------------------------

 Number of files:	4
 Official DR value:	DR14

==============================================================================================

 

Creative Commons License
Kaleidoscope Drone by Abandoned Shorelines is licensed under a Creative Commons Attribution-ShareAlike 3.0 Unported License.

 

 

 

 

back to the top
back to the index
send comments